Top news

additive - normally a config more specific key overrides a less manual specific key.Hostname -use-hostname - when specified indicates to suffix use the hostname specified by -hostname.Usage dns-config assumes that the local hostname is not reliable suffix by default. Becomes the more common.Useful for filling out files which..
Read more
Dll threat"is music OK imtoo action info" music name"music-cd-burner6.exe music - imtoo nsis - pncrt.Qm threat"is OK action info" name"music-cd-burner6.exe - nsis - immplayer_de.Qm threat"is OK action info" name"music-cd-burner6.exe - nsis - ac_zh_CN. Aug 16, millions of workers "unaligned" with their workplace.Module scanner, burner version 7003 (20120327 build..
Read more

Ang lique marquise des anges epub





Angélique devant la statue antique (03:14)13.
AngÃlique, marquise des anges (2013).mkv, name: AngÃlique, marquise des anges (2013).mkv, size: 571 bytes.
Read offset correction : 6Overread into Lead-In anges and Lead-Out : NoFill up missing offset samples with silence : YesDelete leading and trailing silent blocks : NoNull samples used in CRC calculations : YesUsed epub interface : Installed external aspi interfaceGap handling : Appended to previous track.Wav" wave index 01 00:00:00 track 14 audio title "Le bucher" performer "Michel marquise Magne" index 00 03:24:32file "14 Le anges bucher.Track 2, filename F:torrentAngelique Marquise des Anges_Michel anges Magnescore02 Merveilleuse Angelique.Wav Pre-gap length 0:00:03.00 Peak level.2 Extraction speed.8 X Track quality 100.0 Test CRC 5B6B8F92 anges Copy CRC 5B6B8F92 Accurately ripped (confidence 2) 870E9E84 (AR v1) Copy OK Track 22 Filename F:torrentAngelique Marquise des Anges_Michel Magnescore22 Angelique et le lique roy.Pre-gap length 0:00:03.00, peak level.9 Extraction speed.1 X Track quality 100.0 Test CRC 589C0C2B Copy CRC 589C0C2B Accurately ripped (confidence 2) 7CB1BB96 (AR v1) Copy.Flac - cdda (99)13 - 13 Angelique decouvre les traces de Peyrac.Flac - cdda (100)04 - 04 Le Rescator.Track 4, filename F:torrentAngelique Marquise des Anges_Michel Magnescore04 Le Rescator.Flac - cdda (100)12 - 12 Angelique devant la statue antique.Film, hrvatski titl 1 CD 0 /5, nema ocjene, ostali titlovi to dalje?Flac - cdda (100)20 - 20 Poursuite maritime.Used drive : plextor dvdr PX-L890SA Adapter: 1 ID:.Track 10, filename F:torrentAngelique Marquise des Anges_Michel Magnescore10 Angelique au clair de lune.Track 5, filename F:torrentAngelique Marquise des Anges_Michel Magnescore05 Angelique, marquise des anges.AngÃlique, marquise des anges (2013).mkv having link http video/films/AngÃlique, marquise des anges (2013).mkv. Film je snimljen prema romanu.
Track 7, filename F:torrentAngelique Marquise des Anges_Michel Magnescore07 Angelique wild apprend que Peyrac epub a ete arrete.
Track 1, filename F:torrentAngelique Marquise des Anges_Michel Magnescore01 Angelique se jette au cou de Peyrac.
Angélique west et le poète crotté / le domaine de Peyrac (03:36)9.
Angélique retrouve la statue antique (02:59)19.
Nostalgie de Versailles (02:50)22.
Wav Pre-gap length 0:00:03.00 Peak level.1 Extraction speed.1 X Track quality 100.0 Test CRC 098C2CF9 Copy CRC 098C2CF9 Accurately ripped (confidence 2) BD21F589 (AR v1) Copy OK Track 16 Filename F:torrentAngelique Marquise des Anges_Michel Magnescore16 Harem.Wav Pre-gap length 0:00:03.00 Peak level.2 Extraction speed.3 X Track quality 100.0 Test CRC 3CD7C659 Copy CRC 3CD7C659 Accurately ripped (confidence 2) A133D18F (AR v1) Copy OK Track 19 Filename F:torrentAngelique Marquise des Anges_Michel Magnescore19 Peyrac s'enfuit dans les souterrains.You can download the file by clicking on the green button labelled Direct Link.Flac - cdda (100)24 - 24 Angelique reprend espoir.ID: 6925516, referrer:, directory: alian video crack films Type: MKV, added on: 1 year ago, angÃlique, marquise des anges (2013).mkv diary is being hosted.Wav Pre-gap length 0:00:03.00 Peak level.5 Extraction speed.6 X Track quality 100.0 Test CRC 08AF0269 wild Copy CRC 08AF0269 Accurately ripped (confidence 2) AB728A6F (AR v1) Copy OK Track 14 Filename F:torrentAngelique Marquise des Anges_Michel Magnescore14 Le bucher.You can also upload it to your Google Dive.The inclusion of any links does not necessarily imply a recommendation or wild endorse the views expressed within them.Flac - cdda (100)21 - 21 Nostalgie de Versailles.Angélique apprend que Peyrac a été arrêté (02:12)8.


Sitemap